Fm Towns Ii Ux Rom Pack

png Acorn BBC Micro. この機械は昔通っていた中学校で捨てられそうになっているのを救って、cd-romの開閉不良を修理した。. A Z-axis shoot 'em up from Sega that features a F-14 Tomcat jet fighter and incredible speeds. png Acorn Archimedes. Page 1 of 2 1 2 Next >. DK64 had a terrible game breaking bug in the original N64 cartridge, and that's why the Memory Expansion Pack was made. Other Tracks are CD-DA. The FM Towns Marty included an internal AC 110V power supply, running at 50/60 Hz. "The FM Towns (commonly spelled FM-Towns, FM TOWNS, or FM-TOWNS) system is a Japanese PC variant, built by Fujitsu from February 1989 to the summer of 1997. The City of London Corporation is seeking a contractor or contractors for the provision of arboriculture and habitat management services at Epping Forest. If a ROM site is asking you to run an EXE it is a scam, get out. - Multiple Arcade Machine Emulator MAME 0. Ikazuchi no Senshi Raidy I & II Collection Pack (雷の戦士ライディI&II コレクションパック), a bundle containing remade editions of both Ikazuchi no Senshi Raidy and Ikazuchi no Senshi Raidy II was released for Windows XP on March 30, 2007. Fujitsu "The FM Towns II UX-20 makes me smile every time I look at it. Related Music. for Nintendo 3DS (88) Super Street Fighter IV: 3D Edition (3) Sushi Striker: The Way of Sushido (5). Sort By: Title Start Date Replies Views Last Message ↓. Computer Gaming World November 1996 (15th anniversary issue) - Most Memorable Game Hero (Colonel Blair). Kane & Lynch 2: Dog Days. List of all Complete ROM Sets (Full Sets in One File) ROMs at Emuparadise Odyssey2 (No Intro) MAME 0. 140 Update Pack MAME 0. adidas designs for athletes of all kinds. Check out the stuff there and update if possible. Hopefully over time they will get it to a point where its fast in general. Interplay – Lord of the Rings Pack 2 – PC CD-ROM Redbook So I could get my hands on this hard to find 1993 CD-ROM version. SHARP X68000 and Fujitsu FM-TOWNS AX: PC/AT with Japanese display card DOS/V and PC/AT compatibles: "The Black Ship" PC-98, PC/AT and Mac 2. That’s the way their ads work. This can include things like desktop wallpapers or Redbook audio tracks. You can also vote for your favourite system. top page > fm-towns スペック一覧 > fm-townsii モデルux (4代目) FM-TOWNSii モデルUX 漢字rom jis第1,第2水準256kb 辞書rom 512kb:. The more engaging storyline, despite sacrificing features from the first game, was a massive hit with players, for whom Vengeance of the Kilrathi was a dream come true. 只今すかんぽでは、メール会員のご登録をお願いしています。ご登録の方には、新メニューの紹介、イベント(ライブ、レクリエーション等)、特典(指定ドリンク・フード半額サービス)などの情報を配信させていただいております。. png GCE Vectrex (3). sonra da böyle fışı fışı kollarımızı oynatıyoruz" şeklinde bir öğrenim söz konusu. The GNU's Bulletin is the semi-annual newsletter of the Free Software Foundation, bringing you news about the GNU Project. Intermediate, New Horizon CD Learning System II - English Course 1 (FM Towns Marty version), Niko2, Oto to E no Deru Eigo Jisho No. 1 - Start with Words, The Queen of Duellist (HME-166A), Sargon V - World Class Chess, Software Contest Nyuusen Sakuhinshuu 1 (HMC-139), Software Contest Nyuusen Sakuhinshuu 1 (HMC-139B), Software Contest Nyuusen. Unlike the first game which featured numerous ports, Wing Commander II was only ported to FM Towns. 215 version. Trade-in values vary based on the condition, year and configuration of your trade-in device. com is the largest retro gaming resource on the net - we have thousands of games and the latest emulators to run them. Help - Answers to the most commonly asked questions about GameFAQs. Everything else should. 139 Update Pack MAME 0. bin" BINARY TRACK 01 MODE2/2352 INDEX 01 00:00:00. png Acorn Atom. Nintendo NES (NSF) Music. I've not used it much myself, been sticking to ES File Explorer. People who challenge conventions, break the rules, and define new ones. PC-9801: The original The original PC-9801. edu 0066--3382--0158 (IDC). I recaped the whole machine, replaced the PSU with an ATX (Powerswitch and Softpower stil working) but it has a dead CD-Rom. It was very similar to Radio Shacks TRS-80 colour computer being built around the Motorola 6809 CPU. Download consoles computers Roms, for free and play handheld arcade games on your devices windows pc , mac ,ios and android. 5" floppy disks - PC-9801 UX/EX/ES (CV/UV21/UV11) Overview Cover An Operation Manual This manual is identical to the FM-Towns version except for the front cover and pages 1-6, 8, 10-13, 16-17, 20, 22. ; Game Companies - A list of all the companies that have developed and published games. 00 Veil Of Darkness FM TOWNS / MARTY ,Game Disk,Manual,Boxed set tested-b710-. Browse the largest coin-op and gaming database on internet. テンプレート:子記事 本項では、田中芳樹の小説『銀河英雄伝説』を原作としたゲームソフトとボードゲーム、パチンコについて記述する。 目次[表示] ゲームソフト パソコン版 ボーステック版 ボーステックよりウォー・シミュレーションゲームがシリーズ化され、パソコン版を中心に多数発売. Do note that by using this method, only the classic mode is playable. Comparison European Version UK Version show details European / Int. thanks ps i use link2sd and what is the "20link2sd" on etc/init. Play GTA 5 Online. With a few rare exceptions such as DOS, ROMs never come in EXEs. All I've really focused on was porting the current code over with minimal changes. Default Command-Line Parameters. The game was remade for Windows XP with the title Ikazuchi no Senshi Raidy ~Haja no Raikō~ (雷の戦士ライディ ~破邪の雷光~ Lightning Warrior Raidy ~Lightning that Defeats Evil~) on August 12, 2005. Screenshot 4: Data West TOP SCANS MUSIC : Rayxanber II: Rayxanber II: CD•ROM 2: Horizontal Shooter: 1991. Velocity folded not long after the commercial failure of the Strife project. The Steam Workshop has always been a great place for discovering community-made mods, maps, and items for a variety of games. Download Complete ROM Sets (Full Sets in One File) ROMs. It started as a proprietary PC variant intended for multimedia applications and PC games, but later became more compatible with IBM PC compatibles. png Acorn Atom copy. L'FM Towns (noto anche come FM-Towns, FM TOWNS o FM-TOWNS) è un computer giapponese sviluppato da Fujitsu e commercializzato dal febbraio 1989 all'estate del 1997. "The FM Towns (commonly spelled FM-Towns, FM TOWNS, or FM-TOWNS) system is a Japanese PC variant, built by Fujitsu from February 1989 to the summer of 1997. Date: 07/14/16 20:43 in : Video Highres Movies. Fuad Kamal shares that Canada’s CRTC has ruled that all cell phone’s must be unlocked. ; Decompress UNZ, the BIOS files and the game in the same folder on your. The LG G6 flagship smartphone is easily one of the best Android phones of 2017, with a killer design and powerful hardware. Model 101 Magnetic Disk Pack Unit (JS4360) Model 301 Magnetic Drum Unit (JS4160) Model 801 Magnetic Disk Unit (JS4370) MultiImpact 201MX / MultiImpact 700XX / MultiImpact 700JX. NEC provides family trees of PC-9800 series. Find the best 3DS Horror games on GameSpot, including Resident Evil: Revelations and Dementium II!. —MLasmla State oUfcnlaaa \ have appropriated gronndwater according to the Montana laws in effect prior to January 1, 1962, as follows: '. SEGA Genesis / Genesis Game Information. It started as a proprietary PC variant intended for multimedia applications and PC games, but later became more compatible with regular PCs. A lot of the western dungeon & RPG games, Lucasarts etc are in English on FM Towns, including the speach i believe, maybe the only version with this sound due to cd format. The Emulation Realm is a rather large archive of emulators, plugins, frontends, rom managers, and more. VIN: JTHY3JBH9K2018375. 1L60 - completely overhauled the system roms, should be out-of-the-box compatible. In 1993, the FM Towns Marty was released, a gaming console compatible with existing FM Towns. 144 Studio II (No Intro) Satellaview (No. Acorn Dumps Needed. png Acorn Atom. I still have some (probably stupid) questions involving external scsi drives, and generally how to use them on the system. SYS driver from ysflight. I recaped the whole machine, replaced the PSU with an ATX (Powerswitch and Softpower stil working) but it has a dead CD-Rom. A developer named captainys has been working on a new FM Towns emulator named Tsugaru since January 2020. 375th MDG Mental Health Tips Tips For Social Distancing, Quarantine, And Isolation During An Infectious Disease Outbreak. Fujitsu FM-Towns ROMs: Manufacturer : Fujitsu | System : FM-Towns Welcome to the Fujitsu FM-Towns ROMs section of the ROM Database. com from June 07th, 2019, all content should be here (minus threads with none english titles, we'll add later. The stretch of Markham Street between Pizza D’Action (RIP) and the E-Z Mart. Discworld 1/2 run via main dol - Alt dol still included with a new setup for FM-TOWNS games (Thanks Wiimpathy) Added 2 new plugins " Tandy CoCo " and " Dragon 32/64 " by Wiimpathy Updated the Bookmarks Plugin Pack to v. ScummVM is a collection of game engines for playing classic graphical RPGs and point-and-click adventure games on modern hardware. It was released in Japan only, in February 1989, as the successor to the FM-7 computer platform. FM Town Marty Eastern PSU. 215 version. png Funtech Super Acan. Other Tracks are CD-DA. Help - Answers to the most commonly asked questions about GameFAQs. The game was remade for Windows XP with the title Ikazuchi no Senshi Raidy ~Haja no Raikō~ (雷の戦士ライディ ~破邪の雷光~ Lightning Warrior Raidy ~Lightning that Defeats Evil~) on August 12, 2005. I will try to get anything between ME to HC models (I´m excluding FMV because it´s more expensive, more rare and also have somebit of emulation). Troll's Tale. - Added comments describing the RAM expansion possibilities in each model, and modified the user-selectable options accordingly. Transferring Roms Runcommand Updating RetroPie SSH Wifi Arcade Arcade Arcade Quick Start MAME lr-mame2003 FinalBurn Neo lr-fbneo Neo Geo Validating, Rebuilding, and Filtering Arcade ROMs Emulators Emulators 3do Amiga Amstrad CPC Apple II Atari 2600. A Z-axis shoot 'em up from Sega that features a F-14 Tomcat jet fighter and incredible speeds. with future j80 releases. We have a curated list of all the retro Genesis games for you to play online or download to play within an emulator on your computer. 世界初CD-ROM標準搭載パソコン「fm-TOWNS(タウンズ)」の第2世代。 初代「南野陽子(スケバン刑事Ⅱ)」に替わって「観月ありさ(ナースのお仕事)」がCMキャラクタとなった。. ) you cannot login here as this is a clone and your personal info doesn't exist in this database. The Marty only outputs in composite and S-Video. Craig Maloney March 25, 2011 at 2:15 pm. 3600mAh Rechargeable Replacement Battery For Sony PSP Slim 2000. for Nintendo 3DS (88) Super Street Fighter IV: 3D Edition (3) Sushi Striker: The Way of Sushido (5). インドネシア語翻訳について. Sort By: Title Start Date Replies Views Last Message ↓. com is the largest retro gaming resource on the net - we have thousands of games and the latest emulators to run them. I’m using the BIOS files for the ‘FM Towns II UX’, I’d recommend using the same as they seem very compatible. Finally, since you are probably bored of only seeing ISO updates for Commodore and Sega, several new NEC PC Engine CD Fujitsu FM Towns - Operating Systems - [HDM] (TOSEC-v2018-07-01_CM). OEM Rechargeable Extended Battery Pack For Nintendo Wii U Gamepad 3600mAh 3. FM Towns (Japanese: エフエムタウンズ, Hepburn: Efu Emu Taunzu) system is a Japanese PC variant, built by Fujitsu from February 1989 to the summer of 1997. Fujitsu FM-7 - updated official XM7 to v3. Probotector (aka Contra. Low prices across earth's biggest selection of books, music, DVDs, electronics, computers, software, apparel & accessories, shoes, jewelry, tools & hardware, housewares, furniture, sporting goods, beauty & personal care, groceries & just about anything else. Learn how Hitachi helps the society through its social innovation business and advanced technologies. Chaos Strikes Back for PC-9801 3. Overview of PC98 Emulators There have been several developments in PC98 emulation in the last year, so I created this thread to provide information and links to the latest files. Download Grand Theft Auto 5 (GTA V) for PS4, PS3, Xbox One, Xbox 360 at gta5thegame. Nitroblog - Download ISO Games, ROMs & Emulators! Download PC Games, ROMs for PS3, PSVITA, WII ISOs and more. Nintendo NES (NSF) Music. 8 content, (ii) issue takedown requests to online services hosting KINGDOM HEARTS 2. It started as a proprietary PC variant intended for multimedia applications and PC games, but later became more compatible with regular PCs. FM TOWNS アプリケーション・カタログCD‐ROM オリジナル・ソフト編: FMT: Hibaihin: HMA-904: FM Towns World: FMT: Hibaihin: Fractal Engine Demo フラクタル・エンジン ~デモンストレーション~ FMT: Rev 1: FM Towns Soft Collection Kaigai-hen Vol. Fujitsu FM-Towns ROMs: Manufacturer : Fujitsu | System : FM-Towns Welcome to the Fujitsu FM-Towns ROMs section of the ROM Database. The Mac 128/512/Plus drivers have been modernised, and serial port support has been added to the Apple IIgs driver. ScummVM est une machine virtuelle qui permet de jouer aux jeux qui utilisent le système SCUMM (comme les jeux d'aventure de LucasArts ou d'Humongous) sur des plates-formes autres que celles originalement supportées par le jeu ; de plus, le logiciel supporte les jeux non-SCUMM suivants : Simon the Sorcerer I et II, Beneath a Steel Sky, The Legend of. Beside The Pirate Bay, 1337x and RARBG you can easily add your favorite torrent sites. Regarding X68000 I used some program as well as for Fujitsu FM-TOWNS Marty 2 and FM-TOWNS II MX and Fresh-TV. 2 Full Ve Download Top Eleven 2015 for Android v4. Download consoles computers Roms, for free and play handheld arcade games on your devices windows pc , mac ,ios and android ALL Roms - Wowroms. Scott AFB COVID-19 information. Intermediate, New Horizon CD Learning System II - English Course 1 (FM Towns Marty version), Niko², Oto to E no Deru Eigo Jisho No. History PC Engine Super CD-ROM Hudson Ys Book I & II 1990 Dragon Slayer The Legend of Heroes II 2/6/1993 FM-TOWNS Brother n. Unlike most sequels, this one is actually good. fm-towns 富士通 パーソナルコンピュータ 今ではもう知ってる人はそんなに多くないでしょう。 fm-townsとは、コンピュータメーカーである富士通が社運を賭けて1989年に発売した(らしい)、世界で初めてcd-romドライブを標準搭載したパーソナルコンピュータ. 045-401-3746 中学校 E-mail [email protected] It's focused on. The FM-7 was released in 1982 in Japan by Fujitsu as a budget successor to the business style FM-8 (1981). The LG G6 flagship smartphone is easily one of the best Android phones of 2017, with a killer design and powerful hardware. Found 1968 games with 46296 tracks!. ギャラクシーフォースII for FM TOWNS / Galaxy Force II for FM TOWNS - 1080p 60fps - Duration: 28:44. Delegation strategies for the NCLEX, Prioritization for the NCLEX, Infection Control for the NCLEX, FREE resources for the NCLEX, FREE NCLEX Quizzes for the NCLEX, FREE NCLEX exams for the NCLEX, Failed the NCLEX - Help is here. Download Grand Theft Auto 5 (GTA V) for PS4, PS3, Xbox One, Xbox 360 at gta5thegame. I do not know if there are questions about Swine Flu (H1N1 Virus) on the NCLEX but rest assured, since it has been such a big issue around the world, it will be on the NCLEX soon. NEC PC-8801. It’s quite an experience hearing the sound of your voice carrying out to a over 100 first year dental students. 1Fichier Mirror of ByAlvRo's Collection Affiliate link if interested: I've paid for premium til 2022. * Fixed crashes when 1MB ROM or a single floppy drive is selected. The Last of Us: Part II, a highly anticipated game, has finally launched for the PlayStation 4. Despite its cut features, Wing Commander II was another mega-hit for Origin, with anecdotal information estimating as many as half a million copies shipped. File type(s) Emulator(s) Backup Note System ROMs: XM6 Pro-68k XM6 TypeG Required CGROM. Notice: This thread is out of date. In the moment i am trying the YSSCSICD. 9L52aR130423, and V1. Instructions per second (IPS) is a measure of a computer's processor speed. 045-401-9042 FAX. An instant reservation is available both online and over the phone. The video game was released for MS-DOS in 1994. Ring Quest (Apple II) Ultima 3: Exodus (PC) Ultima II: Revenge of the Enchantress (Atari 8-bit) Ultima III: Exodus (Atari 8-bit) 1982 Ultima 2: The Revenge of the Enchantress (PC)??? Ultima IV: Quest of the Avatar (FM Towns) Ultima 8: The Lost Vale (PC) Ultima Trilogy (FM Towns) Ultima V: Warriors of Destiny (FM Towns) Ultima VI: The False. This is also covered on this quiz. Search our huge selection of new and used PlayStation 4 Games at fantastic prices at GameStop. - Multiple Arcade Machine Emulator MAME 0. Fujitsu FM Towns is a Japanese PC Variant, launched for the first time in 1989. 9L60-V2, and v1. The Studio II also did not have joysticks or similar game controllers but instead used two ten-button keypads that were built into the console itself. thanks ps i use link2sd and what is the "20link2sd" on etc/init. Welcome to getMANUAL. ROM = Kanji 2 rom (128k) N88SUB. I recaped the whole machine, replaced the PSU with an ATX (Powerswitch and Softpower stil working) but it has a dead CD-Rom. Detective File #1: Iwami Ginzan Satsujin Jiken ミス・ディテクティヴ ファイル#1 石見銀山殺人事件: FMT: FM Towns Marty Rerelease: New Horizon English Course 1: CD Learning System II: FMT: FM Towns Marty Rerelease: HME-174: The Secret of Monkey Island モンキー. 141 Update Pack MAME 0. Links to current (as of 20180830) mostly full ROM sets for most older systems. QUASI88 NOW AKA Q88X 2018-11-29 Windows NEW; QUASI88 0. You can also vote for your favourite system. png Acorn BBC Micro. fm-towns 富士通 パーソナルコンピュータ 今ではもう知ってる人はそんなに多くないでしょう。 fm-townsとは、コンピュータメーカーである富士通が社運を賭けて1989年に発売した(らしい)、世界で初めてcd-romドライブを標準搭載したパーソナルコンピュータ. A gaming database featuring all coin-op, arcade games, slot machines, home video games and more. Loom FM-Towns El Loom es un gran juego creado por LucasArts en 1990. Our spirit is one of social entrepreneur meets extreme adventurer, approaching the world with the creative drive of an artist and the problem solving skills of an engineer. NICKI MINAJ - KISSING STRANGERS TCTS feat Sage The Gemini & Kelis v7c. Description. Drakkhen is an early-3D western RPG originally developed by Infogrames in 1989, published for Amiga, Atari ST, MS-DOS and Super Nintendo. Good to know. FM Towns / FM Towns Marty. DK64 had a terrible game breaking bug in the original N64 cartridge, and that's why the Memory Expansion Pack was made. It is a sequel to The Last of Us from 2013 that came out for the PlayStation 3 in 2013 and the. Links to current (as of 20180830) mostly full ROM sets for most older systems. Brought to you by ObscureGamers. This code was developed by Rareware, and is a pain in the ass to emulate. Total War: Rome II - Beasts of War Unit Pack (a. fm townsii mx/ma/me/mf 白towns/ハイレゾ対応機もラインナップ; fm townsii hr/hg/ur/ug cpuのグレードアップは迅速; fm townsⅡcx / ux 基本設計の変更なし; fm towns 富士通が本気で全力投球したマシン; fm towns初代機 cd-rom搭載マシン; fm77av40sx townsに後はお任せ; fm77av40ex/20ex 無意味. Discworld 1/2 run via main dol – Alt dol still included with a new setup for FM-TOWNS games (Thanks Wiimpathy) Added 2 new plugins “ Tandy CoCo ” and “ Dragon 32/64 ” by Wiimpathy Updated the Bookmarks Plugin Pack to v. For Nintendo use these two links. DAT and SCSIINROM. ROM = Kanji 1 rom (128k) N88KNJ2. We have a curated list of all the retro Genesis games for you to play online or download to play within an emulator on your computer. If a ROM site is asking you to run an EXE it is a scam, get out. Brought to you by ObscureGamers. It's 1925 and after Edward Carnby's success in his previous two. The Emulation Realm is a rather large archive of emulators, plugins, frontends, rom managers, and more. Published by GT Interactive, it was released for DOS in 1994, just one year after its predecessor. FM Towns II CX/UX (1991/11/05) FM Towns II UX40 needs internal DSP mcu rom decapped/dumped (multiple versions may exist as. png Acorn Archimedes. This can include things like desktop wallpapers or Redbook audio tracks. Wing Commander : Privateer : Speech Pack (dodatkowe dźwięki) (rok produkcji 1993) Wing Commander : Privateer : Righteousfire (rok produkcji 1994) Privateer II : The Darkening (rok produkcji 1996) Książki. WHAT'S A PLAYSTATION ROM? The Read-only Memory (ROM) is a type of non-volatile memory that can be used both in computers and other electronic devices including radio sets, headsets, MP3s, and others for storing sensitive data. 3 – The pack contains a coverflow of bookmarks to Flash game sites, Wii optimised web content and a selection of. 8 content, (ii) issue takedown requests to online services hosting KINGDOM HEARTS 2. Description This compilation contains: Ultima Ultima II: The Revenge of the Enchantress Exodus: Ultima III The FM Towns version has re-vamped graphics: overworld and towns look on par with Ultima IV , while the detail in the dungeon graphics is close to the level of the fifth game. A lot of the western dungeon & RPG games, Lucasarts etc are in English on FM Towns, including the speach i believe, maybe the only version with this sound due to cd format. bin" BINARY TRACK 01 MODE2/2352 INDEX 01 00:00:00. FM16π(PAI) Model 101 Magnetic Disk Pack Unit (JS4360) Model 301 Magnetic Drum Unit (JS4160). I've not used it much myself, been sticking to ES File Explorer. png Fujitsu FM Towns II. Description This compilation contains: Ultima Ultima II: The Revenge of the Enchantress Exodus: Ultima III The FM Towns version has re-vamped graphics: overworld and towns look on par with Ultima IV , while the detail in the dungeon graphics is close to the level of the fifth game. MEGA Faster. Curiosamente, su entrada es una de las pocas del blog que no tiene descripción escrita por mí, sino que copié y pegué la de Aventura y Cía , puesto que yo no había lo había jugado y no me sentía en condiciones de escribirla (especificando la fuente al final, claro). If there is a download link on this page and you expect a torrent to be "well seeded" its VERY unlikely you will have much success - Our revenue funded Seedboxes usually only host for 90 days (more in some "collection" cases). Play and Download SEGA Genesis ROMs for free in high quality. Torrent Name AGE FILES SIZE; The Last Witch Hunter 2015 BluRay 1080p DTS X 7 1 HEVC x265 EmEm. Ryan Bates 1,232,669 views. Resimde gördüğünüz karakterleri yazınız. This is also covered on this quiz. Dungeon Master II was also released for the FM Towns two years before it was released for the PC. The FM Towns Marty 2 is the revised, cheaper version of the original console. 私は最初fm-towns ii ux、その後fm-vtowns fresh gtと2台のマシンを使用した。townsはゲームパッドが標準搭載され、さらにcd-romを入れるとすぐそのままソフトが動く*2ためにゲーム機としても面白いマシンだった(事実、martyというゲーム機が発売されている。. Сайт Позитива и Хорошего Настроения! Афоризмы, цитаты, высказывания великих людей. Download consoles computers Roms, for free and play handheld arcade games on your devices windows pc , mac ,ios and android ALL Roms - Wowroms. Wing Commander series Group Description Space flight and combat simulation series developed by ORIGIN Systems, Inc. sonra da böyle fışı fışı kollarımızı oynatıyoruz" şeklinde bir öğrenim söz konusu. 次世代スパコン「富岳」が挑む:新型コロナウイルスにより生じる様々な社会課題の中において、富士通はお客様へ製品・サービスの提供を継続し、当社の強みであるテクノロジーを積極的に活用しながら課題解決に取り組んでまいります。. Origin had pulled all the stops in making the game its fans wanted. 95年冬モデル fmv-towns model h 91年冬モデル fmtownsii model cx & ux fmtowns史上初のモニタ一体型モデルuxと、従来機のデザインを受け継いだモデルcxです。 uxはシリーズ初の10インチのトリニトロン管crtと、同じく初のフロントローディング型cd-romドライブを搭載し. adidas designs for athletes of all kinds. png Acorn Archimedes. Carlos Abril Because there was a magazine with that sprite, I loved the graphics. Books at Amazon. This allowed the computer to "boot" CD-ROMs directly, like a video game console. - Added comments describing the RAM expansion possibilities in. Conceptual art and graphics made by Carlos Abril, for the Dinamic/Inder arcade game. Curiosamente, su entrada es una de las pocas del blog que no tiene descripción escrita por mí, sino que copié y pegué la de Aventura y Cía , puesto que yo no había lo había jugado y no me sentía en condiciones de escribirla (especificando la fuente al final, claro). This website is not endorsed by Lucasfilm Ltd. NEC PC-8801. Build a Desktop Arcade Machine with Raspberry Pi 3 and Retropie: Super Turbo Pro Edition - Duration: 27:15. 215 version. These ports had no major changes, other than a ludicrous 19-floppy count for PC-98! The CD-ROM edition would later be ported as Strike Commander Plus to both systems in 1995, again with no new changes. Two-piece slipcover box, IBM PC. 今日は富士通 FM-towns uxの2コイチメンテをしております。 fm-towns2fの延命をしております。 fm-77avを買ってみました^^ タウンズⅡCX20も続けて整備しています^^ V-タウンズの修理と延命を致しました^^. 2 Full Version. Default Command-Line Parameters. 1 - Start with Words, The Queen of Duellist (HME-166A), Sargon V - World Class Chess, Software Contest Nyuusen Sakuhinshuu 1 (HMC-139), Software Contest Nyuusen Sakuhinshuu 1 (HMC-139B), Software Contest Nyuusen. List of all Complete ROM Sets (Full Sets in One File) ROMs at Emuparadise. I am no stranger to haggling and if you do it with justice in your heart I won't be offended in the least! I would be happy to pack and sell any smaller item listed here, just so long as I can find an appropriate. Title Developer / Publisher Pack-In-Video / Victor Interactive Software : Super Robot Taisen UX : Banpresto / Bandai Namco Games :. This pack was made using MESS0144 VGM mod. com and Steam (digital copy) and Monkey Island 2: LeChuck's Revenge (available from GOG. Necronomicon PC98 & FM Towns Music Necronomicon is a Japanese horror adventure game, set in the fictional world of author H. ギャラクシーフォースII for FM TOWNS / Galaxy Force II for FM TOWNS - 1080p 60fps - Duration: 28:44. Kingdom Hearts Final Mix was a previously Japan-exclusive reissue of Kingdom Hearts, released on December 26, 2002. Intermediate, New Horizon CD Learning System II - English Course 1 (FM Towns Marty version), Niko2, Oto to E no Deru Eigo Jisho No. DAT for X68000 Compact emulation. News archive of Prince of Persia Unofficial Website. Barry Rodewald has added support for IC Card (PCMCIA SRAM) storage on the FM Towns, and substantially improved LSI Octopus emulation. Manage and improve your online marketing. 9L60-V2, and v1. If there is a download link on this page and you expect a torrent to be "well seeded" its VERY unlikely you will have much success - Our revenue funded Seedboxes usually only host for 90 days (more in some "collection" cases). ) you cannot login here as this is a clone and your personal info doesn't exist in this database. In 1993, the FM Towns Marty was released, a gaming console compatible with existing FM Towns. 古董系统fujitsu fm towns ii model ux街机游戏海报 古董系统fujitsu fm towns ii model ux街机游戏海报古董系统fujitsu fm towns ii model ux街机游戏海报 (街机中国-mamecn com) 阅读详情 2018-11-15. Our goal is to provide an objective viewpoint and information on the hardware that powers the games we all love, for both the hardware collector and gamer alike. Nitroblog - Download ISO Games, ROMs & Emulators! Download PC Games, ROMs for PS3, PSVITA, WII ISOs and more. 0 Fax Soushin Fujitsu 1994/9 FD FM-OASYS V1. L'FM Towns (noto anche come FM-Towns, FM TOWNS o FM-TOWNS) è un computer giapponese sviluppato da Fujitsu e commercializzato dal febbraio 1989 all'estate del 1997. Pack-In-Video / Victor Interactive Software : RPG Nushi Tsuri 64: Shiokaze Ni Notte : Pack-In-Video / Victor Interactive Software : RPG Pokémon Stadium (JPN) HAL Labs / Nintendo : Strategy PD Ultraman Battle Collection 64 : Bandai : RPG Robopon 64: Robot Ponkottsu 64 : Hudson Soft : RPG Shin Nihon Pro Wrestling: Toukon Road - Brave Spirits. The Steam Workshop has always been a great place for discovering community-made mods, maps, and items for a variety of games. - Multiple Arcade Machine Emulator MAME 0. Velocity Incorporated was a San Francisco, California-based game developer and publisher active from the late 1980's up until the 1996 release of Rogue Entertainment's Strife: Quest for the Sigil. FM TOWNS II SN model. Another improvement from previous games was the reversal, allowing quick recovery into an attack after landing on the ground or blocking, thus. png Acorn Atom (2). I played on a console even owning and original Playstation and a Playstation 2 during a period of 5 years while slowly transitioning to PC during my first year of working full time during 2003. The Roll-Up Pack List is a record of known ROMs that can be placed on an SD card for a complete Darksoft Neo Geo MVS & AES Multi setup. Brought to you by ObscureGamers. You have two ways to play the game with UNZ: you can burn the CD image to a CD-R or CD-RW and play the game from your real CD-ROM drive, or you can. Published by GT Interactive, it was released for DOS in 1994, just one year after its predecessor. The process is described in this thread. fujitsu fm-towns computer i386 retro retrogaming cd-rom cd vhs gif 90's 90s 1990s 1990 glitch. Low prices across earth's biggest selection of books, music, DVDs, electronics, computers, software, apparel & accessories, shoes, jewelry, tools & hardware, housewares, furniture, sporting goods, beauty & personal care, groceries & just about anything else. This port was done using a Deluxe edition and features both Special Operations packs and a speech pack. Dumps Needed by Major Manufacturer. png Fujitsu FM Towns II UR. thanks ps i use link2sd and what is the "20link2sd" on etc/init. Fujitsu "The FM Towns II UX-20 makes me smile every time I look at it. DVD-Rom Version US PC CD-Rom Version show details. 世界初CD-ROM標準搭載パソコン「fm-TOWNS(タウンズ)」の第2世代。 初代「南野陽子(スケバン刑事Ⅱ)」に替わって「観月ありさ(ナースのお仕事)」がCMキャラクタとなった。. ; Decompress UNZ, the BIOS files and the game in the same folder on your. 家具、家電はもちろん懐かしのおもちゃ、事務用品、厨房機器、機械工具、 売れる物なら何でも買います。お引越し、店舗・事業所等の移転・閉鎖にともなう不用品を買取ります。潰れている物、売れない物等格安にて回収いたします。 とりあえず、どんなものでもご相談下さい。 24時間. Page 1 of 2 1 2 Next >. 【驚きの値段で】,高速配送 シリンジフィルター(親水性)PTFE φ13mm/φ0. It's a neat system, and all caps are replaced and it's running great, so I've been slowly learning my way around it. 8 content, and/or (iii) delete any publicly accessible KINGDOM HEARTS 2. If there is a download link on this page and you expect a torrent to be "well seeded" its VERY unlikely you will have much success - Our revenue funded Seedboxes usually only host for 90 days (more in some "collection" cases). 2015/01/29 Over 150 SNK Neo-Geo CDs added! 2015/01/19 Another 450 games! NEC Turbo Grafx CD gets some love! Enjoy! 2015/01/12 450 Sega CD ISOs added! 2014/12/31 Happy holidays! Back with a somewhat updated look. The roms must be unzipped prior to loading them in the emulator. Routine conversations in the bar, mission briefings and post-flight debriefings were often replaced with casual interludes, dramatic exchanges and. C'est la dernière machine à avoir été commercialisée par Commodore avant sa faillite en 1994. The FM Towns Marty included an internal AC 110V power supply, running at 50/60 Hz. It has preliminary software support, including Afterburner II. FM TOWNS II Freshの修理延命をしています^^ だいぶ日焼けしてますね^^; しかも電源が入らずご臨終してます。 掃除してもまったく綺麗にならず・・・ もう中を見なくてもまずいことになってるのは想像がつきますので、 全部分解することに決めました。. It's an action game, set in a fantasy, platform and puzzle elements themes and it was released on Commodore 64, SEGA Master System, Amiga, Amstrad CPC and Atari ST as well. ScummVM est une machine virtuelle qui permet de jouer aux jeux qui utilisent le système SCUMM (comme les jeux d'aventure de LucasArts ou d'Humongous) sur des plates-formes autres que celles originalement supportées par le jeu ; de plus, le logiciel supporte les jeux non-SCUMM suivants : Simon the Sorcerer I et II, Beneath a Steel Sky, The Legend of. 3 SDL Win32. Fujitsu FM-Towns ROMs: Manufacturer : Fujitsu | System : FM-Towns Welcome to the Fujitsu FM-Towns ROMs section of the ROM Database. 211 notes “The FM Towns II UX-20. Kingdom Hearts Final Mix was a previously Japan-exclusive reissue of Kingdom Hearts, released on December 26, 2002. Fujitsu FM Towns - Créditos Nimbios - colaboração Jose MDV: 13,81GB: 848: Fujitsu Fm towns completo (Database Oficial) Créditos: Nimbios - uploader Tiago Cesar da Silva: 13,8GB: 849: Fujitsu FM Towns parte 1: 375MB: 850: Fujitsu FM Towns parte 2: 375MB: 851: Fujitsu FM Towns parte 3: 201MB: 852: Fujitsu FM Towns ROMs: 853: Fujitsu FM-7. Computer Gaming World November 1996 (15th anniversary issue) - Most Memorable Game Hero (Colonel Blair). LucasArts, Labyrinth: The Computer Game, Maniac Mansion, Zak McKracken and the Alien Mindbenders, Indiana Jones and the Last Crusade, Loom, The Secret of Monkey Island, Monkey Island 2: LeChuck's Revenge, Indiana Jones and the Fate of Atlantis, Day of the Tentacle, Sam & Max, Full Throttle, The Dig, Grim Fandango, The Curse of Monkey Island, and. The Guidance Of Adventure This manual is identical to the FM Towns version except for the front cover. Comparison International Version Japanese FM Towns Version show details. fm townsは日本初のcd-romドライブ標準搭載パソコンである 。 当時としては画期的な1677万色中256色発色機能やpcm音源を標準搭載し、強力なグラフィック機能やオーディオ機能を誇っていた。. Partially complete set. FM TOWNSII Fresh・TV. この機械は昔通っていた中学校で捨てられそうになっているのを救って、cd-romの開閉不良を修理した。. It's a neat system, and all caps are replaced and it's running great, so I've been slowly learning my way around it. Welcome to the Fujitsu FM 7 Roms Section. DAT and SCSIINROM. The protagonist's graphics were initially based on the sprites of the original Spectrum game, then they were manually rescaled, and then replaced by a version based on Madmartigan's sprite from Capcom's Willow arcade game. Since version 1. 古董系统fujitsu fm towns ii model ux街机游戏海报 (街机中国-mamecn. ROM = Kanji 2 rom (128k) N88SUB. Learn how Hitachi helps the society through its social innovation business and advanced technologies. L'FM Towns (noto anche come FM-Towns, FM TOWNS o FM-TOWNS) è un computer giapponese sviluppato da Fujitsu e commercializzato dal febbraio 1989 all'estate del 1997. Sort By: Title Start Date Replies Views Last Message ↓. Although it was indeed the first such machine released in Europe and North America, the FM Towns Marty, a console released exclusively in Japan, beat it to market by seven months. 世界初CD-ROM標準搭載パソコン「fm-TOWNS(タウンズ)」の第2世代。 初代「南野陽子(スケバン刑事Ⅱ)」に替わって「観月ありさ(ナースのお仕事)」がCMキャラクタとなった。. 送る会に向けて(2/28) 6年生を送る会に向けて、今日は1~5年生でエールの練習を行いました。5年生の学年閉鎖も終わり、気持ちも新たに全校心を一つにがんばっています。. Dumps Needed by Major Manufacturer. SHARP X68000 and Fujitsu FM-TOWNS AX: PC/AT with Japanese display card DOS/V and PC/AT compatibles: "The Black Ship" PC-98, PC/AT and Mac 2. Best Torrent Sites of 2020? A list of 600 torrent sites and invite-only trackers, ranked by rating and. The FM Towns Marty included an internal AC 110V power supply, running at 50/60 Hz. When solder melts and forms a joint between two metal surfaces, it forms a metallurgical bond by chemically reacting with the other metal surfaces. png Acorn Atom. ; Game Credits - A list of all the people and groups credited for all the games we know of. Brought to you by ObscureGamers. There’s a new screen shape in town. The FM Towns Marty is the original unit. io combines popular torrent sites and specialized private trackers in a torrent multisearch. FM TOWNS II Freshの修理延命をしています^^ だいぶ日焼けしてますね^^; しかも電源が入らずご臨終してます。 掃除してもまったく綺麗にならず・・・ もう中を見なくてもまずいことになってるのは想像がつきますので、 全部分解することに決めました。. 215 version, this is the web page for download: progetto-SNAPS MESSINFO. The FM Towns had a launch price of ¥400,000 (over $3000 in 1989 dollars, equivalent to nearly $6000 in 2013 dollars). VIN: JTHY3JBH9K2018375. Arm yourself with deadly sniper weapons, machine guns and the latest military gear to complete covert missions deep inside enemy territory!. png Acorn BBC Micro. For Nintendo use these two links. This pack was made using MESS0144 VGM mod. I do not know if there are questions about Swine Flu (H1N1 Virus) on the NCLEX but rest assured, since it has been such a big issue around the world, it will be on the NCLEX soon. If a ROM site is asking you to run an EXE it is a scam, get out. It has preliminary software support, including Afterburner II. This is an archive of ASSEMblerGames. This is due to a long-standing Windows bug, resulting in corrupt game files being read from the CD. Versions for Windows and Mac OS were also released in 1996 under the name of Alone in the Dark: Ghosts in Town. The stretch of Markham Street between Pizza D’Action (RIP) and the E-Z Mart. Scott AFB COVID-19 information. Buy FM Towns Marty Video Games and get the best deals at the lowest prices on eBay! Great Savings & Free Delivery / Collection on many items Features: Expansion Pack Platform: FM Towns Marty Rating: E10+ (Everyone 10+) Make offer - Fujitsu Fm Towns Cd-Rom Air Combat II Special Systemsoft 1993 Japanese Sealed. Conceptual art and graphics made by Carlos Abril, for the Dinamic/Inder arcade game. List of all Complete ROM Sets (Full Sets in One File) ROMs at Emuparadise. Liste des Roms de l'émulateur ScummVM. It's clear to me that computer type fm towns II is a better option than Marty. FM Towns Soft Collection Kaigai-hen Vol. 1, Windows 95 and FM-Towns's own system, the Towns OS. Like the NES, the SNES also has a number of romhacks to improve and/or modify a game's aspects or make an entirely new game on the game's engine, sometimes with new graphics and music. Sort By: Title Start Date Replies Views Last Message ↓. Square Enix, Disney, and their affiliates reserve the right to (i) ask you to delete or remove from public access any KINGDOM HEARTS 2. Total War: Rome II: Hannibal vor den Toren) PC. Chaos Strikes Back for PC-9801 3. 211 notes “The FM Towns II UX-20. com on-line store! We sell electronic versions of service and user manuals, part lists, schematic diagrams for home and professional audio-visual equipment, PCs and other electrical appliances. CD Audio Games: - When playing games that use CD Audio (FM-TOWNS games, Loom CD, etc) users of Microsoft Windows 2000/XP may experience random crashes. The Studio II also did not have joysticks or similar game controllers but instead used two ten-button keypads that were built into the console itself. Best Torrent Sites of 2020? A list of 600 torrent sites and invite-only trackers, ranked by rating and. The RCA Studio II is a home video game console made by RCA that debuted in January 1977. Call (352) 815-2523 for more information. Instructions per second (IPS) is a measure of a computer's processor speed. Learn how Hitachi helps the society through its social innovation business and advanced technologies. QUASI88 NOW AKA Q88X 2018-11-29 Windows NEW; QUASI88 0. I recaped the whole machine, replaced the PSU with an ATX (Powerswitch and Softpower stil working) but it has a dead CD-Rom. FM Towns is a proprietary 32-bit computer system manufactured by Fujitsu. Torrent Name AGE FILES SIZE; The Last Witch Hunter 2015 BluRay 1080p DTS X 7 1 HEVC x265 EmEm. The Studio II also did not have joysticks or similar game controllers but instead used two ten-button keypads that were built into the console itself. L'auteur précise que "les changements sont principalement liés à l'interface utilisateur, et que l'accent est mis sur le développement et le débogage des fonctionnalités plutôt que sur la précision de l'émulation. 今日は富士通 FM-towns uxの2コイチメンテをしております。 fm-towns2fの延命をしております。 fm-77avを買ってみました^^ タウンズⅡCX20も続けて整備しています^^ V-タウンズの修理と延命を致しました^^. 375th MDG Mental Health Tips Tips For Social Distancing, Quarantine, And Isolation During An Infectious Disease Outbreak. 😉 This day was one of the sunniest, hotest and nices days so far — the norway we dreamed of it. 9月に入って、ディレクトリ同期ツールからのメールが少し変わりました。とはいえ、内容自体に変わりは無く、送り元の署名が「Microsoft Online Servicesチーム」から「Windows Azure Active Directoryチーム」に変わりました。. The NEC PC-98 CD-ROM software list has been updated with the latest dumps and compatibility status - recent emulation improvements mean more fully supported titles. Free shipping. png Acorn Atom copy. bin" BINARY TRACK 01 MODE2/2352 INDEX 01 00:00:00. The FM Towns Marty included an internal AC 110V power supply, running at 50/60 Hz. JP TITLE JP RELEASE DATE Dragon Slayer The Legend of Heroes II 2/6/1993 FM-TOWNS Brother n/a n/a n/a Brandish 2 THE PLANET BUSTER 3/12/1993 PC-9801 Nihon Falcom. FM TOWNS アプリケーション・カタログCD‐ROM オリジナル・ソフト編: FMT: Hibaihin: HMA-904: FM Towns World: FMT: Hibaihin: Fractal Engine Demo フラクタル・エンジン ~デモンストレーション~ FMT: Rev 1: FM Towns Soft Collection Kaigai-hen Vol. Notice: This thread is out of date. Play ps1 games online, A huge retro playstation 1 library and many great titles that cant be found anywhere, all playable in your web browser. WHAT'S A PLAYSTATION ROM? The Read-only Memory (ROM) is a type of non-volatile memory that can be used both in computers and other electronic devices including radio sets, headsets, MP3s, and others for storing sensitive data. Help - Answers to the most commonly asked questions about GameFAQs. A version for FM Towns and PC-9821 was released on October 7 of the same year, and a Windows 95 edition came out on August 23, 1996. ) you cannot login here as this is a clone and your personal info doesn't exist in this database. png Gameboy. Loom FM-Towns El Loom es un gran juego creado por LucasArts en 1990. Fujitsu FM-Towns ROMs: Manufacturer : Fujitsu | System : FM-Towns Welcome to the Fujitsu FM-Towns ROMs section of the ROM Database. C'est la dernière machine à avoir été commercialisée par Commodore avant sa faillite en 1994. 215 version, this is the web page for download: progetto-SNAPS MESSINFO. png Acorn Archimedes. 弊社が提供するサービスを紹介しています。. ROM = Kanji 1 rom (128k) N88KNJ2. The base game was ported to two Japanese computer platforms, the NEC PC-98 and FM Towns, in 1994. Dumps Needed by Major Manufacturer. Replies: 5 Views: 1,853. We have more than 350. Add your FM Towns UX rom pack (Bios) zip to the rom folder in Mess with the name "fmtownsux. Find the best 3DS Horror games on GameSpot, including Resident Evil: Revelations and Dementium II!. The level editor will later be realized as Wing Commander Academy, a spin-off game that let you create your levels with Wing Commander II ships. SYS driver from ysflight. Higemaru 12,709 views. Many reported IPS values have represented "peak" execution rates on artificial instruction sequences with few branches, whereas realistic workloads typically lead to significantly lower IPS values. Fujitsu FM Towns - switched to FM Towns II UX system roms and cleaned up installation. GQP - FM Towns Marty - O primeiro 32bit. Fujitsu FM Towns - Créditos Nimbios - colaboração Jose MDV: 13,81GB: 848: Fujitsu Fm towns completo (Database Oficial) Créditos: Nimbios - uploader Tiago Cesar da Silva: 13,8GB: 849: Fujitsu FM Towns parte 1: 375MB: 850: Fujitsu FM Towns parte 2: 375MB: 851: Fujitsu FM Towns parte 3: 201MB: 852: Fujitsu FM Towns ROMs: 853: Fujitsu FM-7. ROM = Kanji 1 rom (128k) N88KNJ2. L'Amiga CD32 est la première 32-bit à voir le jour en Occident (la FM Towns Marty l'a précédée au Japon). You have two ways to play the game with UNZ: you can burn the CD image to a CD-R or CD-RW and play the game from your real CD-ROM drive, or you can. This content is 4 years old. History PC Engine Super CD-ROM Hudson Ys Book I & II 1990 Dragon Slayer The Legend of Heroes II 2/6/1993 FM-TOWNS Brother n. List of Nihon Falcom games. UNZ: The most popular and the most compatible emulator so far. Partially complete set. ; Game Credits - A list of all the people and groups credited for all the games we know of. Dungeon Master II was also released for the FM Towns two years before it was released for the PC. Found 1968 games with 46296 tracks!. Help - Answers to the most commonly asked questions about GameFAQs. この機械は昔通っていた中学校で捨てられそうになっているのを救って、CD-ROMの開閉不良を修理した。. 送る会に向けて(2/28) 6年生を送る会に向けて、今日は1~5年生でエールの練習を行いました。5年生の学年閉鎖も終わり、気持ちも新たに全校心を一つにがんばっています。. png 4 Player LOGO. The RCA Studio II is a home video game console made by RCA that debuted in January 1977. png Fujitsu FM Towns. In the moment i am trying the YSSCSICD. CD Audio Games: - When playing games that use CD Audio (FM-TOWNS games, Loom CD, etc) users of Microsoft Windows 2000/XP may experience random crashes. It was ported to the PC-98 in 1995. 【驚きの値段で】,高速配送 シリンジフィルター(親水性)PTFE φ13mm/φ0. Description This compilation contains: Ultima Ultima II: The Revenge of the Enchantress Exodus: Ultima III The FM Towns version has re-vamped graphics: overworld and towns look on par with Ultima IV , while the detail in the dungeon graphics is close to the level of the fifth game. You must be at least 18 years old. This pack was made using MESS0144 VGM mod. DAT for enabling X68000 Expert SCSI interface. Velocity Incorporated was a San Francisco, California-based game developer and publisher active from the late 1980's up until the 1996 release of Rogue Entertainment's Strife: Quest for the Sigil. Help - Answers to the most commonly asked questions about GameFAQs. png Acorn Archimedes. The City of London Corporation is seeking a contractor or contractors for the provision of arboriculture and habitat management services at Epping Forest. It was very similar to Radio Shacks TRS-80 colour computer being built around the Motorola 6809 CPU. Title : [PS3] The Darkness II [ダークネス2] (JPN) ISO Download. Kane & Lynch 2: Dog Days. That’s definitely a pretty impressive stretch! They’ve decided to hang up their Helvetica though and look to not only a new typeface, but a new eagle and even a new livery design. The earlier, more distinctive models featuring a vertical CD-ROM tray on the front of the case (model1, model2, 1F, 2F, 1H, 2H, 10F and 20F) were often referred to as the "Gray" Towns, and were the ones most directly associated with the "FM Towns" brand. It has preliminary software support, including Afterburner II. Emulateur Sharp X68000 basé sur la version 2. Used 2019 LEXUS UX 200, from Jenkins Hyundai of Ocala in Ocala, FL, 34471. 144 Studio II (No Intro) Satellaview (No. Fujitsu FM-7 ROMs: Manufacturer : Fujitsu | System : FM-7 Welcome to the Fujitsu FM-7 ROMs section of the ROM Database. ROM = Font rom. 215 version. Everything else should. Finally, since you are probably bored of only seeing ISO updates for Commodore and Sega, several new NEC PC Engine CD Fujitsu FM Towns - Operating Systems - [HDM] (TOSEC-v2018-07-01_CM). 5インチ版20枚、5インチ版23枚]. Play and Download SEGA Genesis ROMs for free in high quality. 1 - Start with Words, The Queen of Duellist (HME-166A), Sargon V - World Class Chess, Software Contest Nyuusen Sakuhinshuu 1 (HMC-139), Software Contest Nyuusen Sakuhinshuu 1 (HMC-139B), Software Contest Nyuusen. More Than Just Code podcast - a podcast about iOS & OS X development This week we follow on using our pet’s paws on our iOS devices, with help of Jeffery Fulton’s canine pal, [insert name]. In 1994 Kotobuki System / Kemco developed a spiritual successor for the SNES, published as Super Drakkhen in Japan and released in North America as Dragon View. †† iPhone 11 pricing is after trade-in of iPhone 8 Plus 64GB. set around the military conflicts between Earth and other space-faring races, notably the feline Kilrathi, in the far future. Play GTA 5 Online. That's the last two Fujitsu FM Towns TOSEC sets I have: Fujitsu FM Towns - CD - Homebrew - Demos (TOSEC-v2009-02-15) Fujitsu FM Towns - CD - Homebrew - Games (TOSEC-v2009-02-15). 95年冬モデル fmv-towns model h 91年冬モデル fmtownsii model cx & ux fmtowns史上初のモニタ一体型モデルuxと、従来機のデザインを受け継いだモデルcxです。 uxはシリーズ初の10インチのトリニトロン管crtと、同じく初のフロントローディング型cd-romドライブを搭載し. FM TOWNSII Fresh・TV. A gaming database featuring all coin-op, arcade games, slot machines, home video games and more. Please scroll down for more sections and remember to share this page. Published by GT Interactive, it was released for DOS in 1994, just one year after its predecessor. ROMs When downloading ROMs always download ZIP, 7Z, ISO or CHD. 古董系统fujitsu fm towns ii model ux街机游戏海报 古董系统fujitsu fm towns ii model ux街机游戏海报古董系统fujitsu fm towns ii model ux街机游戏海报 (街机中国-mamecn com) 阅读详情 2018-11-15. The level editor will later be realized as Wing Commander Academy, a spin-off game that let you create your levels with Wing Commander II ships. Velocity folded not long after the commercial failure of the Strife project. エルドラド・ゴールド (ego) の投資判断 (4) 2018年q3決算 不確実性とリスクと 今回は2018年10月25日付、エルドラドの四半期決算を見ていきます。. Fujitsu FM-Towns (1990) fujitsu fm-towns computer i386 retro retrogaming cd-rom cd vhs gif 90's 90s 1990s 1990 glitch. ScummVM is a collection of newly created, regardless of the original developers of the classic game engines for quests, originally developed for launching games by LucasArts and many non-SCUMM games from companies such as Revolution Software and Adventure Soft, which have developed their own interfaces for interacting with resources (so-called engines, Engl. Download mame (MAME) ROMs free and play on your devices windows pc , mac ,ios and android! - page 1. (Name of Appropriator) (Address) (Town). LG G4 specification includes 16 MP Camera, 32 GB, 3 GB RAM Internal Memory, Grey, White, Gold, Leather Black, Leather Brown, Leather Red, White/Gold Colours, MP3 Player, FM Player, etc. Presently we make two updates a year, but we may go to more frequent updates. The base game was ported to two Japanese computer platforms, the NEC PC-98 and FM Towns, in 1994. The Mac 128/512/Plus drivers have been modernised, and serial port support has been added to the Apple IIgs driver. Transferring Roms Runcommand Updating RetroPie SSH Wifi Arcade Arcade Arcade Quick Start MAME lr-mame2003 FinalBurn Neo lr-fbneo Neo Geo Validating, Rebuilding, and Filtering Arcade ROMs Emulators Emulators 3do Amiga Amstrad CPC Apple II Atari 2600. When solder melts and forms a joint between two metal surfaces, it forms a metallurgical bond by chemically reacting with the other metal surfaces. thanks ps i use link2sd and what is the "20link2sd" on etc/init. In the moment i am trying the YSSCSICD. Search Torrents. Fujitsu FM-7 - updated official XM7 to v3. Liste des Roms de l'émulateur ScummVM. Related Music. VIN: JTHY3JBH9K2018375. Only one time I used my EPROM programmer to read the BIOS from the FM-TOWNS II MX but the resulting file (2048 KB) had to be splitted in more parts to be emulator usable while native programs do the job for you. fm-townsシリーズは、宮沢りえの宣伝とともに、初のシリーズ全機種cd-romドライブ標準装備パソコンとして、衝撃的にデビューしました。縦置きのタワー型筐体で、色はちょっと濃いグレー。その正面に目玉のような標準速cd-romドライブがついていました。. Ikazuchi no Senshi Raidy I & II Collection Pack (雷の戦士ライディI&II コレクションパック), a bundle containing remade editions of both Ikazuchi no Senshi Raidy and Ikazuchi no Senshi Raidy II was released for Windows XP on March 30, 2007. The project contains a simple viewer, plug-ins for. 98 MB (9 %). 2 History of PC-9800 series. Keep watching! Hey gang, going to gauge interest right now in some stuffs. Page 1 of 2 1 2 Next >. I've not used it much myself, been sticking to ES File Explorer. png Acorn BBC Micro. Welcome to the Fujitsu FM 7 Roms Section. Se julkaistiin Isossa-Britanniassa 16. 5" floppy disks - PC-9801 UX/EX/ES (CV/UV21/UV11) Overview Cover An Operation Manual This manual is identical to the FM-Towns version except for the front cover and pages 1-6, 8, 10-13, 16-17, 20, 22. Carlos Abril Because there was a magazine with that sprite, I loved the graphics. 1 - Start with Words, The Queen of Duellist (HME-166A), Sargon V - World Class Chess, Software Contest Nyuusen Sakuhinshuu 1 (HMC-139), Software Contest Nyuusen Sakuhinshuu 1 (HMC-139B), Software Contest Nyuusen. Check out the stuff there and update if possible. Finding Roms back then wasn't difficult but were limited, due to sporadic Rom dumps to bland and basic websites (no real effort, it was a simple link to files and that was it geocities was the most common site used for the early Rom dump days) but times were simpler as emulation was in its infancy. Miguel) Paul Damixie - Get Lost( Matt Nash - Know My Love Paramore - Hard Times DNCE ft. It's clear to me that computer type fm towns II is a better option than Marty. Detective File #1: Iwami Ginzan Satsujin Jiken ミス・ディテクティヴ ファイル#1 石見銀山殺人事件: FMT: FM Towns Marty Rerelease: New Horizon English Course 1: CD Learning System II: FMT: FM Towns Marty Rerelease: HME-174: The Secret of Monkey Island モンキー. (No Intro) Magnavox - Odyssey2 (No Intro) MAME 0. Download the FM-Towns BIOS from the FM-Towns Emulators & System Files at the Japanese Computer Emulation Centre. The same CD audio tracks on the FM Towns CD can also be found on the Sega CD version of the game. ; FAQ Bounty - Write a FAQ for a Most Wanted game, get cash. Please scroll down for more sections and remember to share this page. 215 version, this is the web page for download: progetto-SNAPS MESSINFO. Variations. png Acorn Atom copy. Torrent Name AGE FILES SIZE; The Last Witch Hunter 2015 BluRay 1080p DTS X 7 1 HEVC x265 EmEm. 158! Still working on the CHDs, some logistical things to figure out due to their size. set around the military conflicts between Earth and other space-faring races, notably the feline Kilrathi, in the far future. Trade-in values vary based on the condition, year and configuration of your trade-in device. The games coding requires the Expansion Pack to be present for the game to even function. Game Information Japanese Title : ダークネス2 English Title : The Darkness II Publisher : 2K Games Developer : 2K Games Genre : Shooting Game Version : Japan CERO D (17+) Available On : Play Station 3 (PS3) Size. The FM Towns was cleverly designed: a minimal DOS and CD-ROM drivers were baked into a ROM chip and set as a hidden C:\ partition. Barry Rodewald has added support for IC Card (PCMCIA SRAM) storage on the FM Towns, and substantially improved LSI Octopus emulation. SHARP X68000 and Fujitsu FM-TOWNS AX: PC/AT with Japanese display card DOS/V and PC/AT compatibles: "The Black Ship" PC-98, PC/AT and Mac 2. FM TOWNSII Fresh・TV. LucasArts, Labyrinth: The Computer Game, Maniac Mansion, Zak McKracken and the Alien Mindbenders, Indiana Jones and the Last Crusade, Loom, The Secret of Monkey Island, Monkey Island 2: LeChuck's Revenge, Indiana Jones and the Fate of Atlantis, Day of the Tentacle, Sam & Max, Full Throttle, The Dig, Grim Fandango, The Curse of Monkey Island, and. Direct download APK file and install the app manually onto your Android devices. Accelerate your cross-border supply chain by automating and streamlining trade processes with SAP Global Trade Services. It was later re-released in a dual-format PC-9821 and FM-Towns edition as Star Cruiser II for CD-ROM. The game was remade for Windows XP with the title Ikazuchi no Senshi Raidy ~Haja no Raikō~ (雷の戦士ライディ ~破邪の雷光~ Lightning Warrior Raidy ~Lightning that Defeats Evil~) on August 12, 2005. It was very similar to Radio Shacks TRS-80 colour computer being built around the Motorola 6809 CPU. The KABF-FM, 88. SYS driver from ysflight. Doom II is Id Software's follow-up to their award winning Doom. Free shipping. ROM = Disk rom (2k or 8k) Please note that the emulator is case sensitive. Emulateur Sharp X68000 basé sur la version 2. Play and Download SEGA Genesis ROMs for free in high quality. - Added comments describing the RAM expansion possibilities in. Oh yeah, I remember Game Fan's review of Truxton / Tatsujin II and Galaxy Force II for the FM Towns Marty in 1993. 22μm /1-1377-01 B00UUMDNKM 最初の ,シリンジフィルター(親水性)PTFE φ13mm/φ0. NEC PC-8801. Triple Value Pack. I did the back port mainly for the CM9 ROM I put together for the Samsung Rugby Smart. Se julkaistiin Isossa-Britanniassa 16. pc-9800シリーズ(ux以降) fm-towns(メモリ2m)、marty対応 1枚(cd-rom) [3. This is also covered on this quiz. Discworld 1/2 run via main dol - Alt dol still included with a new setup for FM-TOWNS games (Thanks Wiimpathy) Added 2 new plugins " Tandy CoCo " and " Dragon 32/64 " by Wiimpathy Updated the Bookmarks Plugin Pack to v. sonra da böyle fışı fışı kollarımızı oynatıyoruz" şeklinde bir öğrenim söz konusu. People who listended to this also liked: Street Fighter II Turbo Nintendo SNES (SPC) F-Zero Nintendo SNES (SPC). png Acorn Atom copy. png 4 Player LOGO. Software updates to include Android Auto may be available for some models listed. 215 version, this is the web page for download: progetto-SNAPS MESSINFO. "The FM Towns (commonly spelled FM-Towns, FM TOWNS, or FM-TOWNS) system is a Japanese PC variant, built by Fujitsu from February 1989 to the summer of 1997. Fujitsu FM Towns (0 modules) Fujitsu FM-7 (0 modules) Funtech Super Acan (0 modules) Future Pinball (0 modules) Gaelco (0 modules) GamePark 32 (0 modules) GCE Vectrex (0 modules) Hartung Game Master (0 modules) HBMAME (0 modules) Hector HRX (0 modules) Interton VC 4000 (0 modules) Irem Classics (0 modules) Jupiter ACE (0 modules) Konami. DAT and SCSIINROM. You can now boot HP-BASIC cartridges on the HP9000/340 series. A developer named captainys has been working on a new FM Towns emulator named Tsugaru since January 2020. UKAEA is looking for a range of facilities management services to support this new facility. 1 Archaic desktop PC-98. Higemaru 12,709 views. - try a wired hands free and works but no hands free icon on status bar and radio fm, not work the fm receiver. It is a sequel to The Last of Us from 2013 that came out for the PlayStation 3 in 2013 and the. Kane & Lynch 2: Dog Days.